<?xml version="1.0" standalone="no"?>
<!DOCTYPE svg PUBLIC "-//W3C//DTD SVG 1.1//EN" "http://www.w3.org/Graphics/SVG/1.1/DTD/svg11.dtd">
<svg xmlns="http://www.w3.org/2000/svg">
<defs >
<font id="Questrial" horiz-adv-x="534" ><font-face
    font-family="Questrial"
    units-per-em="1000"
    panose-1="2 0 0 0 0 0 0 0 0 0"
    ascent="820"
    descent="-210"
    alphabetic="0" />
<glyph unicode=" " glyph-name="space" horiz-adv-x="213" />
<glyph unicode="!" glyph-name="exclam" horiz-adv-x="221" d="M159 102V0H62V102H159ZM83 183L64 662H157L138 183H83Z" />
<glyph unicode="&quot;" glyph-name="quotedbl" horiz-adv-x="317" d="M117 443H66L47 662H136L117 443ZM251 443H200L181 662H270L251 443Z" />
<glyph unicode="#" glyph-name="numbersign" horiz-adv-x="581" d="M186 442L207 585H272L251 442H367L388 585H453L432 442H536V377H423L403 233H506V168H394L374 25H309L329 168H213L193 25H128L148 168H45V233H157L177 377H75V442H186ZM222 233H338L358 377H242L222
233Z" />
<glyph unicode="$" glyph-name="dollar" horiz-adv-x="636" d="M591 91T523 43T335 -8V-107H298V-7Q114 2 62 120Q46 156 43 198H121Q123 138 174 102Q219 70 298 64V307Q188 332 146 358T84 413T63 487Q63 566 121 616T298 670V746H335V669Q450 663 512 608Q570
556 574 481H497Q491 528 453 561T335 599V371Q381 360 426 347T508 313Q591 266 591 179ZM136 484Q136 465 149 448T184 419Q222 399 298 380V600Q206 596 166 558Q136 531 136 484ZM335 63Q419 63 467 92T516 180Q516 247 404 280Q371 289 335 298V63Z" />
<glyph unicode="%" glyph-name="percent" horiz-adv-x="845" d="M342 556T342 470T302 336T192 288T82 336T42 477T82 619T195 666T305 611ZM192 345Q259 348 276 431Q280 454 280 477Q280 543 257 576T192 609T127 576T103 477Q103 411 126 378T192 345ZM803
260T803 174T763 40T653 -8T543 40T503 181T543 323T656 370T766 315ZM653 49Q720 52 736 135Q741 158 741 181Q741 247 718 280T653 313T588 280T564 181Q564 115 587 82T653 49ZM683 670L224 -12H161L620 670H683Z" />
<glyph unicode="&amp;" glyph-name="ampersand" horiz-adv-x="580" d="M143 642T184 656T277 670T367 658T430 626Q477 590 489 532H410Q402 556 369 579T288 602T213 593T168 568Q134 538 134 488Q134 434 173 404Q208 378 264 378H425V422H495V378H560V311H495V184Q495
98 435 46Q374 -8 269 -8Q174 -8 106 47Q37 103 37 190Q37 244 69 286T159 350Q122 361 92 400Q59 444 59 486T73 561T115 618ZM255 311Q194 311 152 274Q112 240 112 188T156 98Q200 59 269 59Q343 59 386 96Q425 128 425 178V311H255Z" />
<glyph unicode="&apos;" glyph-name="quotesingle" horiz-adv-x="183" d="M117 443H66L47 662H136L117 443Z" />
<glyph unicode="(" glyph-name="parenleft" horiz-adv-x="245" d="M231 700Q111 506 111 280T231 -138H163Q35 61 35 281T163 700H231Z" />
<glyph unicode=")" glyph-name="parenright" horiz-adv-x="245" d="M14 -138Q134 54 134 280T14 700H82Q210 501 210 281T82 -138H14Z" />
<glyph unicode="*" glyph-name="asterisk" horiz-adv-x="373" d="M218 516L292 434L241 397L187 492L132 397L81 434L155 515L48 538L67 598L167 553L155 662H218L206 553L306 598L325 538L218 516Z" />
<glyph unicode="+" glyph-name="plus" horiz-adv-x="550" d="M500 203H307V0H242V203H50V268H242V471H307V268H500V203Z" />
<glyph unicode="," glyph-name="comma" horiz-adv-x="220" d="M69 80H167L79 -133H11L69 80Z" />
<glyph unicode="-" glyph-name="hyphen" horiz-adv-x="356" d="M53 332H303V259H53V332Z" />
<glyph unicode="." glyph-name="period" horiz-adv-x="203" d="M150 102V0H53V102H150Z" />
<glyph unicode="/" glyph-name="slash" horiz-adv-x="371" d="M335 680L106 -32H36L265 680H335Z" />
<glyph unicode="0" glyph-name="zero" horiz-adv-x="550" d="M43 331Q43 670 275 670Q401 668 460 564Q507 480 507 331Q507 -8 275 -8Q43 -8 43 331ZM275 65Q407 68 426 238Q432 285 432 331Q432 465 395 531T275 597Q192 597 155 531T118 331Q118 197 155 131T275 65Z" />
<glyph unicode="1" glyph-name="one" horiz-adv-x="550" d="M350 662V0H275V590H135V662H350Z" />
<glyph unicode="2" glyph-name="two" horiz-adv-x="550" d="M499 472Q499 429 474 389T409 314T325 248T239 188T172 130T141 72H497V0H52V41Q52 90 79 130T148 206T238 273T327 337T396 402T424 473Q424 531 386 564T278 597T168 568T118 482H43Q51 566 116 618Q181
670 273 670Q378 670 440 614Q499 560 499 472Z" />
<glyph unicode="3" glyph-name="three" horiz-adv-x="550" d="M380 353Q438 331 470 288T502 195T485 110T436 47Q372 -8 277 -8Q183 -8 116 45Q49 99 41 175H117Q125 129 170 97Q216 65 277 65Q346 65 388 101Q427 135 427 188Q427 240 387 276Q345 314 284 314H208V383H275Q327
383 366 413Q405 443 405 491T372 568T276 597T176 569T132 503H59Q66 569 120 617Q180 670 271 670Q367 670 424 620Q480 572 480 494Q480 448 446 404Q416 363 380 353Z" />
<glyph unicode="4" glyph-name="four" horiz-adv-x="550" d="M511 236V169H422V0H347V169H31V242L309 662H422V236H511ZM347 236V598L101 236H347Z" />
<glyph unicode="5" glyph-name="five" horiz-adv-x="550" d="M162 398Q213 429 271 429T370 413T440 368Q502 308 502 212Q502 120 438 56T280 -8Q166 -8 102 54Q55 99 42 166H119Q142 98 213 74Q240 65 275 65T338 76T386 108Q427 151 427 212Q427 277 386 318Q345
359 279 359Q234 359 200 343T148 306L79 348L124 662H469V590H192L162 398Z" />
<glyph unicode="6" glyph-name="six" horiz-adv-x="550" d="M413 508Q385 597 294 597Q206 597 160 518Q118 448 118 328Q142 370 188 396T286 422T379 406T450 362Q516 300 516 207Q516 116 449 53Q384 -8 288 -8Q167 -8 105 79T43 331Q43 576 184 646Q231 670
286 670T377 656T436 619Q484 575 497 508H413ZM288 351Q256 351 229 341T180 312Q135 273 135 212Q135 148 180 106Q222 65 288 65Q352 65 396 105Q441 146 441 207Q441 268 396 310Q351 351 288 351Z" />
<glyph unicode="7" glyph-name="seven" horiz-adv-x="550" d="M506 662V577L230 0H143L429 590H47V662H506Z" />
<glyph unicode="8" glyph-name="eight" horiz-adv-x="550" d="M385 364Q444 341 478 294T512 197T496 110T450 47Q387 -8 275 -8Q163 -8 100 47Q38 101 38 190Q38 247 72 294T165 364Q127 378 98 410Q64 449 64 503Q64 578 118 624T275 670Q378 670 432 624T486
503Q486 424 419 382Q401 370 385 364ZM275 396Q328 396 366 420Q411 449 411 498T373 572T275 598Q215 598 177 573T139 498T180 423T275 396ZM275 64Q350 64 393 98T437 191Q437 253 389 292Q344 327 275 327Q206 327 161 292Q113 253 113 193T156 98T275 64Z"
/>
<glyph unicode="9" glyph-name="nine" horiz-adv-x="550" d="M137 154Q165 65 256 65Q344 65 390 144Q432 214 432 334Q408 292 362 266T264 240T171 256T100 300Q34 362 34 455Q34 546 101 609Q166 670 262 670Q383 670 445 583T507 331Q507 86 366 16Q319 -8
264 -8T173 6T114 43Q66 87 53 154H137ZM262 311Q293 311 321 321T370 350Q415 389 415 450Q415 514 370 556Q328 597 262 597Q198 597 154 557Q109 516 109 455Q109 394 154 352Q199 311 262 311Z" />
<glyph unicode=":" glyph-name="colon" horiz-adv-x="203" d="M150 102V0H53V102H150ZM150 500V398H53V500H150Z" />
<glyph unicode=";" glyph-name="semicolon" horiz-adv-x="245" d="M177 500V398H80V500H177ZM83 80H181L93 -133H25L83 80Z" />
<glyph unicode="&lt;" glyph-name="less" horiz-adv-x="550" d="M507 8L26 220V283L507 496V418L102 252L507 86V8Z" />
<glyph unicode="=" glyph-name="equal" horiz-adv-x="550" d="M493 368V301H57V368H493ZM57 170H493V103H57V170Z" />
<glyph unicode="&gt;" glyph-name="greater" horiz-adv-x="550" d="M42 86L447 252L42 418V496L523 283V220L42 8V86Z" />
<glyph unicode="?" glyph-name="question" horiz-adv-x="515" d="M465 486Q465 450 453 422T423 372T383 330T342 290Q300 242 300 183H227Q227 276 310 352Q361 397 377 427T394 483T388 527T367 564Q333 601 266 601Q197 601 154 560Q114 522 110 466H39Q43
551 102 609Q165 670 260 670Q362 670 416 614Q465 563 465 486ZM312 102V0H215V102H312Z" />
<glyph unicode="@" glyph-name="at" horiz-adv-x="852" d="M596 221Q596 168 650 168T738 215T773 364Q773 492 684 581Q596 669 468 669Q393 669 324 639T203 556T119 435T87 295T110 169T176 74Q264 -13 393 -13T612 61L634 31Q532 -50 392 -50Q317 -50 254
-23T146 50T76 158T50 295T83 446T174 579T308 671T460 706T598 680T707 609T782 502T810 372T794 258T752 182Q701 123 624 123Q566 123 544 158Q533 173 531 193Q474 123 386 123Q304 123 258 170Q216 215 216 289Q216 397 282 465Q347 532 442 532T574 462L584
526H644L597 234Q596 232 596 230V221ZM558 358Q558 409 529 444Q499 479 443 479Q369 479 323 429Q276 378 276 295Q276 244 307 211T405 177T515 230T558 358Z" />
<glyph unicode="A" glyph-name="A" horiz-adv-x="662" d="M659 0H576L495 192H167L86 0H3L284 662H378L659 0ZM466 261L331 584L196 261H466Z" />
<glyph unicode="B" glyph-name="B" horiz-adv-x="662" d="M587 487Q587 378 498 338Q580 311 610 239Q621 211 621 174Q621 54 494 14Q452 0 395 0H81V662H378Q485 662 541 604Q587 558 587 487ZM156 366H378Q470 366 501 429Q512 451 512 476T505 521T483 556Q450
591 386 591H156V366ZM403 71Q472 71 509 99T546 180Q546 230 510 262Q470 298 395 298H156V71H403Z" />
<glyph unicode="C" glyph-name="C" horiz-adv-x="690" d="M376 65Q447 65 500 101T580 198H659Q626 104 550 50Q469 -8 359 -8Q214 -8 124 91Q39 186 39 331T124 571Q214 670 359 670Q469 670 550 612Q626 558 659 464H580Q554 525 501 561T376 597T258 577T179
520Q114 447 114 331Q114 215 179 142Q247 65 376 65Z" />
<glyph unicode="D" glyph-name="D" horiz-adv-x="704" d="M360 662Q419 662 474 640T571 574Q664 479 664 331Q664 183 571 88Q529 45 474 23T360 0H81V662H360ZM357 71Q461 71 526 148Q589 222 589 331Q589 440 526 514Q461 591 357 591H156V71H357Z" />
<glyph unicode="E" glyph-name="E" horiz-adv-x="608" d="M156 590V368H524V295H156V72H568V0H81V662H568V590H156Z" />
<glyph unicode="F" glyph-name="F" horiz-adv-x="583" d="M156 590V360H515V287H156V0H81V662H559V590H156Z" />
<glyph unicode="G" glyph-name="G" horiz-adv-x="723" d="M170 617T230 643T354 670T465 656T550 618Q629 567 666 482H584Q554 536 501 566T379 597T263 577T182 520Q114 446 114 331Q114 215 181 142Q252 65 369 65Q463 65 531 123Q603 184 603 284H361V352H672V0H603V117Q546
31 445 2Q408 -8 348 -8T227 18T125 91Q39 185 39 331Q39 475 128 571Q170 617 230 643Z" />
<glyph unicode="H" glyph-name="H" horiz-adv-x="697" d="M616 662V0H541V295H156V0H81V662H156V368H541V662H616Z" />
<glyph unicode="I" glyph-name="I" horiz-adv-x="237" d="M156 0H81V662H156V0Z" />
<glyph unicode="J" glyph-name="J" horiz-adv-x="527" d="M452 662V219Q452 123 404 62Q348 -8 236 -8Q135 -8 75 50Q22 103 15 177H93Q100 133 134 102Q174 65 240 65Q320 65 354 118Q377 155 377 222V662H452Z" />
<glyph unicode="K" glyph-name="K" horiz-adv-x="641" d="M348 396L646 0H552L293 345L156 217V0H81V662H156V317L524 662H630L348 396Z" />
<glyph unicode="L" glyph-name="L" horiz-adv-x="533" d="M156 662V72H517V0H81V662H156Z" />
<glyph unicode="M" glyph-name="M" horiz-adv-x="806" d="M725 662V0H650V548L405 233L156 548V0H81V662H168L405 348L638 662H725Z" />
<glyph unicode="N" glyph-name="N" horiz-adv-x="733" d="M652 662V0H565L156 559V0H81V662H168L577 105V662H652Z" />
<glyph unicode="O" glyph-name="O" horiz-adv-x="750" d="M375 670Q523 670 618 571Q711 475 711 331T618 91Q523 -8 375 -8Q227 -8 132 91Q39 187 39 331T132 571Q227 670 375 670ZM375 65Q493 65 566 142Q636 216 636 331Q636 446 566 520Q493 597 375 597Q257
597 184 520Q114 446 114 331Q114 216 184 142Q257 65 375 65Z" />
<glyph unicode="P" glyph-name="P" horiz-adv-x="628" d="M156 0H81V662H379Q484 662 546 604Q607 546 607 449Q607 351 546 294T379 236H156V0ZM156 591V306H374Q452 306 492 344T532 448T492 553T374 591H156Z" />
<glyph unicode="Q" glyph-name="Q" horiz-adv-x="750" d="M597 -93Q662 -93 718 -48L758 -102Q689 -157 596 -157Q522 -157 458 -116Q394 -75 361 -7Q218 -1 128 96Q39 190 39 331Q39 475 132 571Q227 670 375 670Q523 670 618 571Q711 475 711 331Q711 205 635
112Q559 18 437 -2Q466 -60 536 -84Q562 -93 597 -93ZM375 65Q493 65 566 142Q636 216 636 331Q636 446 566 520Q493 597 375 597Q257 597 184 520Q114 446 114 331Q114 216 184 142Q257 65 375 65Z" />
<glyph unicode="R" glyph-name="R" horiz-adv-x="669" d="M156 0H81V662H398Q499 662 560 606Q621 551 621 455Q621 331 518 286Q489 273 461 267L635 0H546L386 254H156V0ZM156 325H385Q491 325 531 391Q546 416 546 455Q546 518 503 554T389 591H156V325Z" />
<glyph unicode="S" glyph-name="S" horiz-adv-x="615" d="M138 544T132 524T125 482T144 440T196 408T269 385T352 365T436 341T509 306Q580 261 580 183Q580 90 511 41T318 -8Q179 -8 106 50Q41 102 32 198H110Q114 130 176 94Q230 63 319 63Q505 63 505 180Q505
220 472 243T388 281T279 309T170 342T86 396T52 487Q52 568 114 619T301 670Q427 670 496 612Q559 561 563 481H486Q476 563 380 590Q346 600 296 600T211 589T157 561Z" />
<glyph unicode="T" glyph-name="T" horiz-adv-x="565" d="M551 590H320V0H245V590H14V662H551V590Z" />
<glyph unicode="U" glyph-name="U" horiz-adv-x="709" d="M636 662V285Q636 153 558 73T354 -8Q230 -8 152 72T73 285V662H148V283Q148 176 212 116Q267 65 354 65Q441 65 497 116Q561 175 561 283V662H636Z" />
<glyph unicode="V" glyph-name="V" horiz-adv-x="628" d="M625 662L357 0H271L3 662H85L314 85L543 662H625Z" />
<glyph unicode="W" glyph-name="W" horiz-adv-x="958" d="M300 0H215L9 662H88L258 106L436 662H522L700 106L870 662H949L743 0H658L479 556L300 0Z" />
<glyph unicode="X" glyph-name="X" horiz-adv-x="613" d="M352 342L616 0H521L306 284L92 0H-3L261 342L15 662H110L306 402L503 662H598L352 342Z" />
<glyph unicode="Y" glyph-name="Y" horiz-adv-x="629" d="M352 0H277V262L-1 662H90L314 340L538 662H629L352 262V0Z" />
<glyph unicode="Z" glyph-name="Z" horiz-adv-x="584" d="M121 70H553V0H29V71L461 592H35V662H553V590L121 70Z" />
<glyph unicode="[" glyph-name="bracketleft" horiz-adv-x="280" d="M132 617V-71H253V-133H66V679H253V617H132Z" />
<glyph unicode="\" glyph-name="backslash" horiz-adv-x="371" d="M106 680L335 -32H265L36 680H106Z" />
<glyph unicode="]" glyph-name="bracketright" horiz-adv-x="280" d="M27 617V679H214V-133H27V-71H148V617H27Z" />
<glyph unicode="^" glyph-name="asciicircum" horiz-adv-x="500" d="M434 355H364L255 570L145 355H75L224 668H285L434 355Z" />
<glyph unicode="_" glyph-name="underscore" horiz-adv-x="600" d="M50 -73H550V-128H50V-73Z" />
<glyph unicode="`" glyph-name="grave" horiz-adv-x="340" d="M261 570H200L93 675H200L261 570Z" />
<glyph unicode="a" glyph-name="a" horiz-adv-x="595" d="M455 80Q395 -8 276 -8Q168 -8 100 67Q34 141 34 250Q34 359 100 433Q168 508 281 508T455 419V500H530V0H455V80ZM286 60Q367 60 414 116Q459 169 459 250Q459 331 414 384Q367 440 286 440Q206 440 156
384Q109 331 109 250Q109 169 156 116Q206 60 286 60Z" />
<glyph unicode="b" glyph-name="b" horiz-adv-x="594" d="M140 419Q201 508 319 508Q427 508 494 433Q561 359 561 250Q561 141 494 67Q427 -8 314 -8T140 80V0H65V700H140V419ZM309 60Q389 60 439 116Q486 169 486 250Q486 331 439 384Q389 440 309 440Q228 440
181 384Q136 331 136 250Q136 169 181 116Q228 60 309 60Z" />
<glyph unicode="c" glyph-name="c" horiz-adv-x="544" d="M296 60Q344 60 381 87T435 157H516Q493 83 432 38Q368 -8 280 -8Q170 -8 101 67Q34 140 34 250Q34 360 101 433Q170 508 280 508Q368 508 432 462Q493 417 516 343H435Q418 386 381 413T296 440T215 425T158
384Q109 330 109 250Q109 170 158 116Q208 60 296 60Z" />
<glyph unicode="d" glyph-name="d" horiz-adv-x="595" d="M455 80Q395 -8 276 -8Q168 -8 100 67Q34 141 34 250Q34 359 100 433Q168 508 281 508T455 419V700H530V0H455V80ZM286 60Q367 60 414 116Q459 169 459 250Q459 331 414 384Q367 440 286 440Q206 440 156
384Q109 331 109 250Q109 169 156 116Q206 60 286 60Z" />
<glyph unicode="e" glyph-name="e" horiz-adv-x="557" d="M288 60Q389 60 433 144H515Q489 76 433 34T287 -8Q174 -8 103 67Q34 140 34 250Q34 361 100 433Q170 508 282 508Q394 508 464 433Q530 361 530 250V220H111Q119 151 166 106Q214 60 288 60ZM282 440Q213
440 166 397Q122 356 112 290H452Q442 356 398 397Q351 440 282 440Z" />
<glyph unicode="f" glyph-name="f" horiz-adv-x="307" d="M280 637Q227 637 201 614T174 538V500H290V434H174V0H99V434H13V500H99V544Q99 626 148 667T284 708H290V637H280Z" />
<glyph unicode="g" glyph-name="g" horiz-adv-x="595" d="M455 420V500H530V15Q530 -93 469 -149T303 -206T141 -166T61 -60H144Q176 -138 290 -138Q377 -138 416 -98T455 20V89Q394 0 276 0Q168 0 100 74Q34 146 34 254Q34 362 100 434Q168 508 281 508T455 420ZM286
68Q327 68 359 82T414 122Q459 174 459 254Q459 334 414 386Q365 440 286 440Q205 440 156 386Q109 333 109 254Q109 175 156 122Q205 68 286 68Z" />
<glyph unicode="h" glyph-name="h" horiz-adv-x="566" d="M140 700V422Q167 458 206 483T295 508T381 494T444 452Q506 391 506 291V0H431V289Q431 358 392 399T291 440Q228 440 184 398Q140 355 140 288V0H65V700H140Z" />
<glyph unicode="i" glyph-name="i" horiz-adv-x="205" d="M65 500H140V0H65V500ZM143 682V584H62V682H143Z" />
<glyph unicode="j" glyph-name="j" horiz-adv-x="205" d="M65 500H140V-198H65V500ZM143 682V584H62V682H143Z" />
<glyph unicode="k" glyph-name="k" horiz-adv-x="502" d="M285 303L501 0H409L234 251L140 158V0H65V700H140V252L381 500H486L285 303Z" />
<glyph unicode="l" glyph-name="l" horiz-adv-x="205" d="M140 0H65V700H140V0Z" />
<glyph unicode="m" glyph-name="m" horiz-adv-x="868" d="M140 424Q190 508 292 508Q342 508 384 482T451 407Q485 470 557 497Q586 508 622 508T692 494T752 452Q808 392 808 302V0H733V300Q733 362 698 402Q663 440 609 440Q552 440 514 403Q474 365 474 299V0H399V300Q399
362 364 402Q329 440 275 440Q218 440 180 403Q140 365 140 299V0H65V500H140V424Z" />
<glyph unicode="n" glyph-name="n" horiz-adv-x="566" d="M140 500V422Q167 458 206 483T295 508T381 494T444 452Q506 391 506 291V0H431V289Q431 358 392 399T291 440Q228 440 184 398Q140 355 140 288V0H65V500H140Z" />
<glyph unicode="o" glyph-name="o" horiz-adv-x="564" d="M282 508Q394 508 464 433Q530 361 530 250Q530 139 464 67Q394 -8 282 -8Q170 -8 100 67Q34 139 34 250Q34 361 100 433Q170 508 282 508ZM282 60Q363 60 410 116Q455 169 455 250Q455 331 410 384Q363
440 282 440Q201 440 154 384Q109 331 109 250Q109 169 154 116Q201 60 282 60Z" />
<glyph unicode="p" glyph-name="p" horiz-adv-x="594" d="M140 420Q200 508 319 508Q427 508 494 433Q561 359 561 250Q561 141 494 67Q427 -8 314 -8T140 81V-198H65V500H140V420ZM309 440Q228 440 181 384Q136 331 136 250Q136 169 181 116Q228 60 309 60Q389
60 439 116Q486 169 486 250Q486 331 439 384Q389 440 309 440Z" />
<glyph unicode="q" glyph-name="q" horiz-adv-x="595" d="M455 81Q394 -8 276 -8Q168 -8 100 67Q34 141 34 250Q34 359 100 433Q168 508 281 508T455 420V500H530V-198H455V81ZM286 440Q206 440 156 384Q109 331 109 250Q109 169 156 116Q206 60 286 60Q367 60
414 116Q459 169 459 250Q459 331 414 384Q367 440 286 440Z" />
<glyph unicode="r" glyph-name="r" horiz-adv-x="345" d="M329 508V433H320Q239 433 188 368Q140 306 140 220V0H65V500H140V377Q164 455 244 492Q277 508 324 508H329Z" />
<glyph unicode="s" glyph-name="s" horiz-adv-x="482" d="M359 366Q349 444 234 444T118 372Q118 342 142 327T204 301T284 283T365 259T426 216T451 142Q451 69 396 31T247 -8Q147 -8 88 42Q34 86 30 157H108Q115 88 186 64Q212 56 237 56T285 59T328 70Q376
89 376 135Q376 166 352 182T290 209T210 228T129 252T68 293T43 365Q43 433 92 470T239 508Q331 508 384 464Q428 427 435 366H359Z" />
<glyph unicode="t" glyph-name="t" horiz-adv-x="326" d="M119 0V434H17V500H119V679H194V500H309V434H194V0H119Z" />
<glyph unicode="u" glyph-name="u" horiz-adv-x="566" d="M426 0V78Q399 42 360 17T271 -8T185 6T122 48Q60 109 60 209V500H135V211Q135 142 174 101T275 60Q338 60 382 102Q426 145 426 212V500H501V0H426Z" />
<glyph unicode="v" glyph-name="v" horiz-adv-x="489" d="M484 500L289 0H201L5 500H87L245 80L402 500H484Z" />
<glyph unicode="w" glyph-name="w" horiz-adv-x="754" d="M377 399L252 0H166L9 500H89L209 93L336 500H418L545 93L665 500H745L588 0H502L377 399Z" />
<glyph unicode="x" glyph-name="x" horiz-adv-x="482" d="M284 258L478 0H382L241 204L99 0H4L197 258L16 500H112L241 311L369 500H465L284 258Z" />
<glyph unicode="y" glyph-name="y" horiz-adv-x="497" d="M198 -198H117L208 7L4 500H87L248 90L412 500H494L198 -198Z" />
<glyph unicode="z" glyph-name="z" horiz-adv-x="458" d="M125 70H425V0H31V71L330 431H35V500H425V430L125 70Z" />
<glyph unicode="{" glyph-name="braceleft" horiz-adv-x="294" d="M96 273Q166 238 166 144V12Q166 -40 187 -59T269 -79V-133Q233 -133 203 -130T149 -112Q100 -81 100 11V155Q100 201 72 228Q49 250 21 250V296Q49 296 66 313Q100 345 100 391V535Q100 664 202
676Q233 679 269 679V625Q209 625 188 606T166 534V402Q166 346 145 316T96 273Z" />
<glyph unicode="|" glyph-name="bar" horiz-adv-x="191" d="M65 -179V748H126V-179H65Z" />
<glyph unicode="}" glyph-name="braceright" horiz-adv-x="294" d="M128 144Q128 238 198 273Q170 286 149 316T128 402V534Q128 586 107 605T25 625V679Q61 679 91 676T145 658Q194 627 194 535V391Q194 345 222 318Q245 296 273 296V250Q245 250 228 233Q194
201 194 155V11Q194 -118 92 -130Q61 -133 25 -133V-79Q85 -79 106 -60T128 12V144Z" />
<glyph unicode="~" glyph-name="asciitilde" horiz-adv-x="524" d="M48 215Q63 349 160 349Q197 349 250 328T328 298T373 288T407 297T429 318T440 342T446 360H478Q468 303 454 279T420 240T371 226T311 235T252 256T198 276T152 286T118 278T96 257T85 233T79 215H48Z" />
<glyph unicode="&#xa0;" glyph-name="space" horiz-adv-x="213" />
<glyph unicode="&#xa1;" glyph-name="exclamdown" horiz-adv-x="207" d="M153 398V500H56V398H153ZM77 317L58 -162H151L132 317H77Z" />
<glyph unicode="&#xa2;" glyph-name="cent" horiz-adv-x="574" d="M316 60Q365 64 398 90T449 157H530Q510 88 454 44T316 -7V-101H280V-8Q174 -2 111 72Q48 146 48 250Q48 354 111 428Q174 502 280 508V595H316V507Q397 501 453 457T530 343H449Q432 384 399
410T316 440V60ZM123 250Q123 178 165 124Q209 69 280 61V439Q207 429 165 376Q123 322 123 250Z" />
<glyph unicode="&#xa3;" glyph-name="sterling" horiz-adv-x="575" d="M328 670Q380 670 414 658T473 624Q518 585 531 518H460Q443 573 385 592Q364 599 328 599T264 585T223 548Q201 513 201 446V377H349V319H201V70H504V0H48V61L128 70V319H57V377H128V449Q128
544 174 603Q226 670 328 670Z" />
<glyph unicode="&#xa4;" glyph-name="currency" horiz-adv-x="567" d="M455 450Q496 397 496 325T455 197L519 133L475 88L410 153Q356 111 285 111T157 153L93 88L48 133L112 197Q71 252 71 324T112 450L48 515L93 560L157 495Q212 536 284 536T410 495L475 560L519
515L455 450ZM284 172Q315 172 343 184T392 216Q436 261 436 324T392 431T284 476T177 432T132 324T176 217T284 172Z" />
<glyph unicode="&#xa5;" glyph-name="yen" horiz-adv-x="657" d="M98 190H291V262L274 289H98V354H232L37 662H128L328 340L529 662H620L424 354H559V289H383L366 262V190H559V125H366V0H291V125H98V190Z" />
<glyph unicode="&#xa7;" glyph-name="section" horiz-adv-x="519" d="M396 74Q435 31 435 -20T416 -101T370 -148Q321 -178 250 -178Q169 -178 113 -131Q59 -86 53 -19H122Q128 -56 163 -82Q201 -111 250 -111T330 -91T362 -36T339 24T280 73T205 120T129 169T71
227T47 298Q47 385 124 416Q86 463 86 513T104 592T150 639Q198 669 267 669Q347 669 402 622Q454 577 460 510H391Q385 547 352 573Q316 602 267 602T189 582T159 528T182 467T241 418T316 371T392 322T450 264T474 193Q474 105 396 74ZM360 109Q401 128 401 169T377
236T316 285T238 331T161 382Q120 362 120 322T144 255T205 205T283 160T360 109Z" />
<glyph unicode="&#xa8;" glyph-name="dieresis" horiz-adv-x="423" d="M163 662V579H74V662H163ZM320 662V579H231V662H320Z" />
<glyph unicode="&#xa9;" glyph-name="copyright" horiz-adv-x="779" d="M495 419T467 440T387 461T303 425T270 329Q270 270 303 234T387 197T466 218T502 276H569Q557 206 508 168Q462 133 389 133Q302 133 252 188Q202 244 202 329Q202 415 252 469Q303 524
389 524Q499 524 547 444Q563 418 569 382H502Q495 419 467 440ZM389 672Q460 672 522 645T631 572T705 463T732 329Q732 258 705 196T632 88T523 14T389 -13Q318 -13 256 14T148 87T74 196T47 329Q47 400 74 462T147 571T256 645T389 672ZM389 36Q511 36 597 122Q637
162 660 215T683 329T660 443T597 537Q511 623 389 623Q266 623 182 537Q96 450 96 329Q96 269 119 216T182 122Q266 36 389 36Z" />
<glyph unicode="&#xaa;" glyph-name="ordfeminine" horiz-adv-x="371" d="M262 619V662H314V396H262V439Q230 392 167 392Q108 392 72 432Q37 471 37 529T72 626Q108 666 168 666T262 619ZM89 490T111 465T175 440T240 465T263 529Q263 567 240 592T175 618T111
593T89 529Z" />
<glyph unicode="&#xab;" glyph-name="guillemotleft" horiz-adv-x="487" d="M305 259L442 57H353L223 259L353 461H442L305 259ZM121 259L258 57H169L39 259L169 461H258L121 259Z" />
<glyph unicode="&#xac;" glyph-name="logicalnot" horiz-adv-x="593" d="M62 389H529V186H457V321H62V389Z" />
<glyph unicode="&#xae;" glyph-name="registered" horiz-adv-x="779" d="M558 407Q558 373 538 347T483 309Q538 293 550 219Q553 200 553 185V138H484V176Q484 219 475 238Q456 278 407 278H310V138H240V520H402Q483 520 520 489T558 407ZM397 338Q439 338 464
354T489 399T469 444T395 461H310V338H397ZM389 672Q460 672 522 645T631 572T705 463T732 329Q732 258 705 196T632 88T523 14T389 -13Q318 -13 256 14T148 87T74 196T47 329Q47 400 74 462T147 571T256 645T389 672ZM389 36Q511 36 597 122Q637 162 660 215T683
329T660 443T597 537Q511 623 389 623Q266 623 182 537Q96 450 96 329Q96 269 119 216T182 122Q266 36 389 36Z" />
<glyph unicode="&#xaf;" glyph-name="overscore" horiz-adv-x="382" d="M321 582H57V642H321V582Z" />
<glyph unicode="&#xb0;" glyph-name="degree" horiz-adv-x="333" d="M166 667Q220 667 258 629T297 536Q297 484 258 444Q222 406 166 406Q112 406 74 444T36 536Q36 592 74 628Q114 667 166 667ZM93 506T114 485T166 463T218 484T240 536T219 588T167 610T115
589T93 537Z" />
<glyph unicode="&#xb1;" glyph-name="plusminus" horiz-adv-x="550" d="M500 276H307V122H242V276H50V341H242V495H307V341H500V276ZM500 0H50V62H500V0Z" />
<glyph unicode="&#xb2;" glyph-name="twosuperior" horiz-adv-x="354" d="M301 556Q301 487 221 434Q199 420 178 406Q128 373 116 352H301V300H52V329Q52 389 149 451Q207 488 226 511T246 558T227 597T178 612T128 594T102 548H46Q53 598 88 631T179 665T268
634T301 556Z" />
<glyph unicode="&#xb3;" glyph-name="threesuperior" horiz-adv-x="335" d="M233 492Q265 478 280 457T295 405T285 356T256 324Q221 296 170 296Q118 296 80 328Q42 361 38 407H93Q98 383 119 365T172 347T221 365T240 406Q240 429 224 448T173 467H126V514H169Q193
514 211 528T229 563T214 599T169 614T122 599T101 563H47Q51 604 82 634Q116 666 166 666T250 643T284 578Q284 516 233 492Z" />
<glyph unicode="&#xb4;" glyph-name="acute" horiz-adv-x="349" d="M147 675H254L147 570H86L147 675Z" />
<glyph unicode="&#xb5;" glyph-name="mu" horiz-adv-x="564" d="M276 -8Q197 -8 147 46V-198H72V500H147V211Q147 142 186 101T287 60Q350 60 394 102Q438 145 438 212V500H513V0H438V78Q411 42 374 17T276 -8Z" />
<glyph unicode="&#xb6;" glyph-name="paragraph" horiz-adv-x="565" d="M509 616H466V-141H407V616H335V-141H276V335H203Q133 335 85 383T36 502Q36 571 84 621Q132 670 203 670H509V616Z" />
<glyph unicode="&#xb7;" glyph-name="middot" horiz-adv-x="203" d="M150 344V242H53V344H150Z" />
<glyph unicode="&#xb8;" glyph-name="cedilla" horiz-adv-x="300" d="M151 -54Q161 -52 173 -52Q211 -52 238 -72T265 -129Q265 -188 194 -205Q174 -210 144 -210T83 -198T33 -169L52 -136Q96 -166 137 -166Q192 -166 192 -130Q192 -115 176 -106T141 -97T104
-102L83 -85L152 23H195L151 -54Z" />
<glyph unicode="&#xb9;" glyph-name="onesuperior" horiz-adv-x="212" d="M154 662V301H99V610H26V662H154Z" />
<glyph unicode="&#xba;" glyph-name="ordmasculine" horiz-adv-x="342" d="M171 666Q231 666 268 626Q305 588 305 529Q305 470 268 432Q231 392 171 392Q111 392 74 432Q37 470 37 529Q37 588 74 626Q111 666 171 666ZM171 440Q212 440 232 466T253 528T233 591T171
618Q130 618 110 591T89 529T109 467T171 440Z" />
<glyph unicode="&#xbb;" glyph-name="guillemotright" horiz-adv-x="487" d="M45 461H134L264 259L134 57H45L182 259L45 461ZM229 461H318L448 259L318 57H229L366 259L229 461Z" />
<glyph unicode="&#xbc;" glyph-name="onequarter" horiz-adv-x="713" d="M670 137V88H624V0H569V88H404V137L553 361H624V137H670ZM569 301L460 137H569V301ZM167 662V301H112V610H39V662H167ZM98 -14L518 674H582L162 -14H98Z" />
<glyph unicode="&#xbd;" glyph-name="onehalf" horiz-adv-x="754" d="M167 662V301H112V610H39V662H167ZM98 -14L518 674H582L162 -14H98ZM705 257Q705 188 625 135Q603 121 582 107Q532 74 520 53H705V1H456V30Q456 90 553 152Q611 189 630 212T650 259T631 298T582
313T532 295T506 249H450Q457 299 492 332T583 366T672 335T705 257Z" />
<glyph unicode="&#xbe;" glyph-name="threequarters" horiz-adv-x="785" d="M744 137V88H698V0H643V88H478V137L627 361H698V137H744ZM643 301L534 137H643V301ZM172 -14L592 674H656L236 -14H172ZM238 492Q270 478 285 457T300 405T290 356T262 324Q226 296 175
296Q123 296 86 328Q47 361 43 407H98Q103 383 124 365T177 347T226 365T245 406Q245 429 229 448T178 467H131V514H174Q198 514 216 528T234 563T219 599T174 614T127 599T106 563H52Q56 604 87 634Q121 666 171 666T255 643T289 578Q289 516 238 492Z" />
<glyph unicode="&#xbf;" glyph-name="questiondown" horiz-adv-x="507" d="M45 14Q45 50 57 78T87 128T127 170T168 210Q210 258 210 317H283Q283 224 200 148Q149 103 133 73T116 17T122 -27T143 -64Q177 -101 244 -101Q313 -101 356 -60Q396 -22 400 34H471Q467
-51 408 -109Q345 -170 250 -170Q148 -170 94 -114Q45 -63 45 14ZM198 398V500H295V398H198Z" />
<glyph unicode="&#xc0;" glyph-name="Agrave" horiz-adv-x="662" d="M659 0H576L495 192H167L86 0H3L284 662H378L659 0ZM466 261L331 584L196 261H466ZM393 715H332L225 820H332L393 715Z" />
<glyph unicode="&#xc1;" glyph-name="Aacute" horiz-adv-x="662" d="M659 0H576L495 192H167L86 0H3L284 662H378L659 0ZM466 261L331 584L196 261H466ZM328 820H435L328 715H267L328 820Z" />
<glyph unicode="&#xc2;" glyph-name="Acircumflex" horiz-adv-x="662" d="M659 0H576L495 192H167L86 0H3L284 662H378L659 0ZM466 261L331 584L196 261H466ZM390 715L331 769L272 715H190L288 820H375L472 715H390Z" />
<glyph unicode="&#xc3;" glyph-name="Atilde" horiz-adv-x="662" d="M659 0H576L495 192H167L86 0H3L284 662H378L659 0ZM466 261L331 584L196 261H466ZM259 754Q224 754 209 715H178Q185 781 233 805Q251 813 275 813Q308 813 336 799T378 779T412 772T443 785T459
812H491Q475 714 395 714Q359 714 332 727T291 747T259 754Z" />
<glyph unicode="&#xc4;" glyph-name="Adieresis" horiz-adv-x="662" d="M659 0H576L495 192H167L86 0H3L284 662H378L659 0ZM466 261L331 584L196 261H466ZM297 803V720H208V803H297ZM454 803V720H365V803H454Z" />
<glyph unicode="&#xc5;" glyph-name="Aring" horiz-adv-x="662" d="M279 651Q241 678 241 720T267 788T330 814Q367 814 394 788Q421 763 421 720T382 651L659 0H576L495 192H167L86 0H3L279 651ZM466 261L331 584L196 261H466ZM287 706T300 693T331 680T362 693T375
724T362 756T331 769T300 756T287 725Z" />
<glyph unicode="&#xc6;" glyph-name="AE" horiz-adv-x="1022" d="M983 662V590H596V368H939V295H596V72H983V0H521V185H212L87 0H-3L450 662H983ZM521 590H487L259 254H521V590Z" />
<glyph unicode="&#xc7;" glyph-name="Ccedilla" horiz-adv-x="690" d="M349 -54Q359 -52 371 -52Q409 -52 436 -72T463 -129Q463 -188 392 -205Q372 -210 342 -210T281 -198T231 -169L250 -136Q294 -166 335 -166Q390 -166 390 -130Q390 -115 374 -106T339 -97T302
-102L281 -85L331 -7Q196 3 116 100Q39 194 39 331Q39 476 124 571Q214 670 359 670Q469 670 550 612Q626 558 659 464H580Q554 525 501 561T376 597T258 577T179 520Q114 447 114 331Q114 215 179 142Q247 65 365 65Q447 65 500 101T580 198H659Q628 110 555 54T375
-8L349 -54Z" />
<glyph unicode="&#xc8;" glyph-name="Egrave" horiz-adv-x="608" d="M156 590V368H524V295H156V72H568V0H81V662H568V590H156ZM385 715H324L217 820H324L385 715Z" />
<glyph unicode="&#xc9;" glyph-name="Eacute" horiz-adv-x="608" d="M156 590V368H524V295H156V72H568V0H81V662H568V590H156ZM328 820H435L328 715H267L328 820Z" />
<glyph unicode="&#xca;" glyph-name="Ecircumflex" horiz-adv-x="608" d="M156 590V368H524V295H156V72H568V0H81V662H568V590H156ZM390 715L331 769L272 715H190L288 820H375L472 715H390Z" />
<glyph unicode="&#xcb;" glyph-name="Edieresis" horiz-adv-x="608" d="M156 590V368H524V295H156V72H568V0H81V662H568V590H156ZM297 803V720H208V803H297ZM454 803V720H365V803H454Z" />
<glyph unicode="&#xcc;" glyph-name="Igrave" horiz-adv-x="237" d="M156 0H81V662H156V0ZM185 715H124L17 820H124L185 715Z" />
<glyph unicode="&#xcd;" glyph-name="Iacute" horiz-adv-x="237" d="M156 0H81V662H156V0ZM112 820H219L112 715H51L112 820Z" />
<glyph unicode="&#xce;" glyph-name="Icircumflex" horiz-adv-x="237" d="M156 0H81V662H156V0ZM178 715L119 769L60 715H-22L76 820H163L260 715H178Z" />
<glyph unicode="&#xcf;" glyph-name="Idieresis" horiz-adv-x="237" d="M156 0H81V662H156V0ZM85 803V720H-4V803H85ZM242 803V720H153V803H242Z" />
<glyph unicode="&#xd0;" glyph-name="Eth" horiz-adv-x="712" d="M368 662Q427 662 482 640T579 574Q672 479 672 331Q672 183 579 88Q537 45 482 23T368 0H89V298H7V363H89V662H368ZM365 71Q469 71 534 148Q597 222 597 331Q597 440 534 514Q469 591 365 591H164V363H355V298H164V71H365Z"
/>
<glyph unicode="&#xd1;" glyph-name="Ntilde" horiz-adv-x="733" d="M652 662V0H565L156 559V0H81V662H168L577 105V662H652ZM295 754Q260 754 245 715H214Q221 781 269 805Q287 813 311 813Q344 813 372 799T414 779T448 772T479 785T495 812H527Q511 714 431
714Q395 714 368 727T327 747T295 754Z" />
<glyph unicode="&#xd2;" glyph-name="Ograve" horiz-adv-x="750" d="M375 670Q523 670 618 571Q711 475 711 331T618 91Q523 -8 375 -8Q227 -8 132 91Q39 187 39 331T132 571Q227 670 375 670ZM375 65Q493 65 566 142Q636 216 636 331Q636 446 566 520Q493 597
375 597Q257 597 184 520Q114 446 114 331Q114 216 184 142Q257 65 375 65ZM444 715H383L276 820H383L444 715Z" />
<glyph unicode="&#xd3;" glyph-name="Oacute" horiz-adv-x="750" d="M375 670Q523 670 618 571Q711 475 711 331T618 91Q523 -8 375 -8Q227 -8 132 91Q39 187 39 331T132 571Q227 670 375 670ZM375 65Q493 65 566 142Q636 216 636 331Q636 446 566 520Q493 597
375 597Q257 597 184 520Q114 446 114 331Q114 216 184 142Q257 65 375 65ZM363 820H470L363 715H302L363 820Z" />
<glyph unicode="&#xd4;" glyph-name="Ocircumflex" horiz-adv-x="750" d="M375 670Q523 670 618 571Q711 475 711 331T618 91Q523 -8 375 -8Q227 -8 132 91Q39 187 39 331T132 571Q227 670 375 670ZM375 65Q493 65 566 142Q636 216 636 331Q636 446 566 520Q493
597 375 597Q257 597 184 520Q114 446 114 331Q114 216 184 142Q257 65 375 65ZM434 715L375 769L316 715H234L332 820H419L516 715H434Z" />
<glyph unicode="&#xd5;" glyph-name="Otilde" horiz-adv-x="750" d="M375 670Q523 670 618 571Q711 475 711 331T618 91Q523 -8 375 -8Q227 -8 132 91Q39 187 39 331T132 571Q227 670 375 670ZM375 65Q493 65 566 142Q636 216 636 331Q636 446 566 520Q493 597
375 597Q257 597 184 520Q114 446 114 331Q114 216 184 142Q257 65 375 65ZM301 754Q266 754 251 715H220Q227 781 275 805Q293 813 317 813Q350 813 378 799T420 779T454 772T485 785T501 812H533Q517 714 437 714Q401 714 374 727T333 747T301 754Z" />
<glyph unicode="&#xd6;" glyph-name="Odieresis" horiz-adv-x="750" d="M375 670Q523 670 618 571Q711 475 711 331T618 91Q523 -8 375 -8Q227 -8 132 91Q39 187 39 331T132 571Q227 670 375 670ZM375 65Q493 65 566 142Q636 216 636 331Q636 446 566 520Q493
597 375 597Q257 597 184 520Q114 446 114 331Q114 216 184 142Q257 65 375 65ZM341 803V720H252V803H341ZM498 803V720H409V803H498Z" />
<glyph unicode="&#xd7;" glyph-name="multiply" horiz-adv-x="550" d="M325 257L478 104L429 54L275 208L122 54L72 104L226 257L72 411L122 460L275 307L429 460L478 411L325 257Z" />
<glyph unicode="&#xd8;" glyph-name="Oslash" horiz-adv-x="750" d="M375 670Q496 670 585 602L652 680L684 652L616 574Q711 479 711 331Q711 187 618 91Q523 -8 375 -8Q257 -8 166 61L98 -17L67 11L135 88Q39 186 39 331Q39 475 132 571Q227 670 375 670ZM536
547Q469 597 375 597Q257 597 184 520Q114 446 114 331Q114 217 183 144L536 547ZM214 116Q282 65 375 65Q493 65 566 142Q636 216 636 331Q636 445 568 519L214 116Z" />
<glyph unicode="&#xd9;" glyph-name="Ugrave" horiz-adv-x="709" d="M636 662V285Q636 153 558 73T354 -8Q230 -8 152 72T73 285V662H148V283Q148 176 212 116Q267 65 354 65Q441 65 497 116Q561 175 561 283V662H636ZM412 715H351L244 820H351L412 715Z" />
<glyph unicode="&#xda;" glyph-name="Uacute" horiz-adv-x="709" d="M636 662V285Q636 153 558 73T354 -8Q230 -8 152 72T73 285V662H148V283Q148 176 212 116Q267 65 354 65Q441 65 497 116Q561 175 561 283V662H636ZM355 820H462L355 715H294L355 820Z" />
<glyph unicode="&#xdb;" glyph-name="Ucircumflex" horiz-adv-x="709" d="M636 662V285Q636 153 558 73T354 -8Q230 -8 152 72T73 285V662H148V283Q148 176 212 116Q267 65 354 65Q441 65 497 116Q561 175 561 283V662H636ZM413 715L354 769L295 715H213L311 820H398L495
715H413Z" />
<glyph unicode="&#xdc;" glyph-name="Udieresis" horiz-adv-x="709" d="M636 662V285Q636 153 558 73T354 -8Q230 -8 152 72T73 285V662H148V283Q148 176 212 116Q267 65 354 65Q441 65 497 116Q561 175 561 283V662H636ZM320 803V720H231V803H320ZM477 803V720H388V803H477Z"
/>
<glyph unicode="&#xdd;" glyph-name="Yacute" horiz-adv-x="629" d="M352 0H277V262L-1 662H90L314 340L538 662H629L352 262V0ZM310 820H417L310 715H249L310 820Z" />
<glyph unicode="&#xde;" glyph-name="Thorn" horiz-adv-x="627" d="M156 0H81V662H156V565H379Q484 565 546 507Q607 449 607 352Q607 254 546 197T379 139H156V0ZM156 494V209H374Q452 209 492 247T532 351T492 456T374 494H156Z" />
<glyph unicode="&#xdf;" glyph-name="germandbls" horiz-adv-x="557" d="M489 488Q489 371 381 337Q472 316 509 237Q523 207 523 165Q523 85 462 43T293 0H205V66H294Q363 66 405 92T447 176Q447 233 397 268T253 304V359Q322 359 367 390Q414 424 414 478T381
568T278 603Q179 603 150 540Q140 516 140 480V0H65V484Q65 571 121 620T279 670Q368 670 425 627Q489 578 489 488Z" />
<glyph unicode="&#xe0;" glyph-name="agrave" horiz-adv-x="595" d="M455 80Q395 -8 276 -8Q168 -8 100 67Q34 141 34 250Q34 359 100 433Q168 508 281 508T455 419V500H530V0H455V80ZM286 60Q367 60 414 116Q459 169 459 250Q459 331 414 384Q367 440 286 440Q206
440 156 384Q109 331 109 250Q109 169 156 116Q206 60 286 60ZM332 570H271L164 675H271L332 570Z" />
<glyph unicode="&#xe1;" glyph-name="aacute" horiz-adv-x="595" d="M455 80Q395 -8 276 -8Q168 -8 100 67Q34 141 34 250Q34 359 100 433Q168 508 281 508T455 419V500H530V0H455V80ZM286 60Q367 60 414 116Q459 169 459 250Q459 331 414 384Q367 440 286 440Q206
440 156 384Q109 331 109 250Q109 169 156 116Q206 60 286 60ZM279 675H386L279 570H218L279 675Z" />
<glyph unicode="&#xe2;" glyph-name="acircumflex" horiz-adv-x="595" d="M455 80Q395 -8 276 -8Q168 -8 100 67Q34 141 34 250Q34 359 100 433Q168 508 281 508T455 419V500H530V0H455V80ZM286 60Q367 60 414 116Q459 169 459 250Q459 331 414 384Q367 440 286
440Q206 440 156 384Q109 331 109 250Q109 169 156 116Q206 60 286 60ZM336 570L277 624L218 570H136L234 675H321L418 570H336Z" />
<glyph unicode="&#xe3;" glyph-name="atilde" horiz-adv-x="595" d="M455 80Q395 -8 276 -8Q168 -8 100 67Q34 141 34 250Q34 359 100 433Q168 508 281 508T455 419V500H530V0H455V80ZM286 60Q367 60 414 116Q459 169 459 250Q459 331 414 384Q367 440 286 440Q206
440 156 384Q109 331 109 250Q109 169 156 116Q206 60 286 60ZM216 609Q181 609 166 570H135Q142 636 190 660Q208 668 232 668Q265 668 293 654T335 634T369 627T400 640T416 667H448Q432 569 352 569Q316 569 289 582T248 602T216 609Z" />
<glyph unicode="&#xe4;" glyph-name="adieresis" horiz-adv-x="595" d="M455 80Q395 -8 276 -8Q168 -8 100 67Q34 141 34 250Q34 359 100 433Q168 508 281 508T455 419V500H530V0H455V80ZM286 60Q367 60 414 116Q459 169 459 250Q459 331 414 384Q367 440 286
440Q206 440 156 384Q109 331 109 250Q109 169 156 116Q206 60 286 60ZM246 662V579H157V662H246ZM403 662V579H314V662H403Z" />
<glyph unicode="&#xe5;" glyph-name="aring" horiz-adv-x="595" d="M455 80Q395 -8 276 -8Q168 -8 100 67Q34 141 34 250Q34 359 100 433Q168 508 281 508T455 419V500H530V0H455V80ZM286 60Q367 60 414 116Q459 169 459 250Q459 331 414 384Q367 440 286 440Q206
440 156 384Q109 331 109 250Q109 169 156 116Q206 60 286 60ZM316 556T279 556T216 582T190 645T216 709T279 735T343 710T370 646T343 582ZM236 627T249 614T280 601T311 614T324 645T311 677T280 690T249 677T236 646Z" />
<glyph unicode="&#xe6;" glyph-name="ae" horiz-adv-x="977" d="M530 428Q588 508 702 508Q814 508 884 433Q950 361 950 250V220H531Q540 149 584 106Q633 60 708 60Q764 60 800 87T857 157H937Q913 84 852 38T702 -8Q588 -8 530 71V0H455V80Q395 -8 276 -8Q168
-8 100 67Q34 141 34 250Q34 359 100 433Q168 508 281 508T455 419V500H530V428ZM286 60Q367 60 414 116Q459 169 459 250Q459 331 414 384Q367 440 286 440Q206 440 156 384Q109 331 109 250Q109 169 156 116Q206 60 286 60ZM872 290Q862 356 818 397Q771 440
702 440Q633 440 586 397Q542 356 532 290H872Z" />
<glyph unicode="&#xe7;" glyph-name="ccedilla" horiz-adv-x="544" d="M273 -54Q283 -52 295 -52Q333 -52 360 -72T387 -129Q387 -188 316 -205Q296 -210 266 -210T205 -198T155 -169L174 -136Q218 -166 259 -166Q314 -166 314 -130Q314 -115 298 -106T263 -97T226
-102L205 -85L255 -6Q154 2 94 76Q34 148 34 250Q34 360 101 433Q170 508 280 508Q368 508 432 462Q493 417 516 343H435Q418 386 381 413T296 440T215 425T158 384Q109 330 109 250Q109 170 158 116Q208 60 290 60Q344 60 381 87T435 157H516Q495 88 438 43T299
-7L273 -54Z" />
<glyph unicode="&#xe8;" glyph-name="egrave" horiz-adv-x="557" d="M288 60Q389 60 433 144H515Q489 76 433 34T287 -8Q174 -8 103 67Q34 140 34 250Q34 361 100 433Q170 508 282 508Q394 508 464 433Q530 361 530 250V220H111Q119 151 166 106Q214 60 288 60ZM282
440Q213 440 166 397Q122 356 112 290H452Q442 356 398 397Q351 440 282 440ZM346 570H285L178 675H285L346 570Z" />
<glyph unicode="&#xe9;" glyph-name="eacute" horiz-adv-x="557" d="M288 60Q389 60 433 144H515Q489 76 433 34T287 -8Q174 -8 103 67Q34 140 34 250Q34 361 100 433Q170 508 282 508Q394 508 464 433Q530 361 530 250V220H111Q119 151 166 106Q214 60 288 60ZM282
440Q213 440 166 397Q122 356 112 290H452Q442 356 398 397Q351 440 282 440ZM272 675H379L272 570H211L272 675Z" />
<glyph unicode="&#xea;" glyph-name="ecircumflex" horiz-adv-x="557" d="M288 60Q389 60 433 144H515Q489 76 433 34T287 -8Q174 -8 103 67Q34 140 34 250Q34 361 100 433Q170 508 282 508Q394 508 464 433Q530 361 530 250V220H111Q119 151 166 106Q214 60 288
60ZM282 440Q213 440 166 397Q122 356 112 290H452Q442 356 398 397Q351 440 282 440ZM341 570L282 624L223 570H141L239 675H326L423 570H341Z" />
<glyph unicode="&#xeb;" glyph-name="edieresis" horiz-adv-x="557" d="M288 60Q389 60 433 144H515Q489 76 433 34T287 -8Q174 -8 103 67Q34 140 34 250Q34 361 100 433Q170 508 282 508Q394 508 464 433Q530 361 530 250V220H111Q119 151 166 106Q214 60 288
60ZM282 440Q213 440 166 397Q122 356 112 290H452Q442 356 398 397Q351 440 282 440ZM248 662V579H159V662H248ZM405 662V579H316V662H405Z" />
<glyph unicode="&#xec;" glyph-name="igrave" horiz-adv-x="205" d="M65 500H140V0H65V500ZM428 570H367L260 675H367L428 570Z" />
<glyph unicode="&#xed;" glyph-name="iacute" horiz-adv-x="205" d="M65 500H140V0H65V500ZM352 675H459L352 570H291L352 675Z" />
<glyph unicode="&#xee;" glyph-name="icircumflex" horiz-adv-x="205" d="M65 500H140V0H65V500ZM418 570L359 624L300 570H218L316 675H403L500 570H418Z" />
<glyph unicode="&#xef;" glyph-name="idieresis" horiz-adv-x="205" d="M65 500H140V0H65V500ZM325 662V579H236V662H325ZM482 662V579H393V662H482Z" />
<glyph unicode="&#xf0;" glyph-name="eth" horiz-adv-x="573" d="M342 625Q433 552 476 480Q530 388 530 269Q530 156 466 78Q396 -8 286 -8Q168 -8 98 70Q34 140 34 253Q34 363 96 438Q159 514 263 514Q354 514 409 455Q380 511 313 558Q295 570 278 582L222
545L190 583L233 611Q200 630 169 644L196 715Q249 690 300 656L375 706L407 668L342 625ZM282 59Q362 59 410 118Q455 173 455 253Q455 332 406 388Q355 447 274 447Q197 447 151 390Q109 336 109 253Q109 173 154 118Q202 59 282 59Z" />
<glyph unicode="&#xf1;" glyph-name="ntilde" horiz-adv-x="566" d="M140 500V422Q167 458 206 483T295 508T381 494T444 452Q506 391 506 291V0H431V289Q431 358 392 399T291 440Q228 440 184 398Q140 355 140 288V0H65V500H140ZM212 609Q177 609 162 570H131Q138
636 186 660Q204 668 228 668Q261 668 289 654T331 634T365 627T396 640T412 667H444Q428 569 348 569Q312 569 285 582T244 602T212 609Z" />
<glyph unicode="&#xf2;" glyph-name="ograve" horiz-adv-x="564" d="M282 508Q394 508 464 433Q530 361 530 250Q530 139 464 67Q394 -8 282 -8Q170 -8 100 67Q34 139 34 250Q34 361 100 433Q170 508 282 508ZM282 60Q363 60 410 116Q455 169 455 250Q455 331
410 384Q363 440 282 440Q201 440 154 384Q109 331 109 250Q109 169 154 116Q201 60 282 60ZM349 570H288L181 675H288L349 570Z" />
<glyph unicode="&#xf3;" glyph-name="oacute" horiz-adv-x="564" d="M282 508Q394 508 464 433Q530 361 530 250Q530 139 464 67Q394 -8 282 -8Q170 -8 100 67Q34 139 34 250Q34 361 100 433Q170 508 282 508ZM282 60Q363 60 410 116Q455 169 455 250Q455 331
410 384Q363 440 282 440Q201 440 154 384Q109 331 109 250Q109 169 154 116Q201 60 282 60ZM271 675H378L271 570H210L271 675Z" />
<glyph unicode="&#xf4;" glyph-name="ocircumflex" horiz-adv-x="564" d="M282 508Q394 508 464 433Q530 361 530 250Q530 139 464 67Q394 -8 282 -8Q170 -8 100 67Q34 139 34 250Q34 361 100 433Q170 508 282 508ZM282 60Q363 60 410 116Q455 169 455 250Q455
331 410 384Q363 440 282 440Q201 440 154 384Q109 331 109 250Q109 169 154 116Q201 60 282 60ZM341 570L282 624L223 570H141L239 675H326L423 570H341Z" />
<glyph unicode="&#xf5;" glyph-name="otilde" horiz-adv-x="564" d="M282 508Q394 508 464 433Q530 361 530 250Q530 139 464 67Q394 -8 282 -8Q170 -8 100 67Q34 139 34 250Q34 361 100 433Q170 508 282 508ZM282 60Q363 60 410 116Q455 169 455 250Q455 331
410 384Q363 440 282 440Q201 440 154 384Q109 331 109 250Q109 169 154 116Q201 60 282 60ZM210 609Q175 609 160 570H129Q136 636 184 660Q202 668 226 668Q259 668 287 654T329 634T363 627T394 640T410 667H442Q426 569 346 569Q310 569 283 582T242 602T210
609Z" />
<glyph unicode="&#xf6;" glyph-name="odieresis" horiz-adv-x="564" d="M282 508Q394 508 464 433Q530 361 530 250Q530 139 464 67Q394 -8 282 -8Q170 -8 100 67Q34 139 34 250Q34 361 100 433Q170 508 282 508ZM282 60Q363 60 410 116Q455 169 455 250Q455 331
410 384Q363 440 282 440Q201 440 154 384Q109 331 109 250Q109 169 154 116Q201 60 282 60ZM248 662V579H159V662H248ZM405 662V579H316V662H405Z" />
<glyph unicode="&#xf7;" glyph-name="divide" horiz-adv-x="550" d="M512 269V200H38V269H512ZM231 110H319V17H231V110ZM231 452H319V359H231V452Z" />
<glyph unicode="&#xf8;" glyph-name="oslash" horiz-adv-x="564" d="M282 508Q374 508 439 456L493 516L519 493L465 431Q530 360 530 250Q530 139 464 67Q394 -8 282 -8Q188 -8 126 44L72 -17L46 6L100 68Q34 140 34 250Q34 361 100 433Q170 508 282 508ZM392
402Q348 440 282 440Q201 440 154 384Q109 331 109 250Q109 175 149 123L392 402ZM416 376L173 98Q217 60 290 60T409 114T455 247T416 376Z" />
<glyph unicode="&#xf9;" glyph-name="ugrave" horiz-adv-x="566" d="M426 0V78Q399 42 360 17T271 -8T185 6T122 48Q60 109 60 209V500H135V211Q135 142 174 101T275 60Q338 60 382 102Q426 145 426 212V500H501V0H426ZM343 570H282L175 675H282L343 570Z" />
<glyph unicode="&#xfa;" glyph-name="uacute" horiz-adv-x="566" d="M426 0V78Q399 42 360 17T271 -8T185 6T122 48Q60 109 60 209V500H135V211Q135 142 174 101T275 60Q338 60 382 102Q426 145 426 212V500H501V0H426ZM276 675H383L276 570H215L276 675Z" />
<glyph unicode="&#xfb;" glyph-name="ucircumflex" horiz-adv-x="566" d="M426 0V78Q399 42 360 17T271 -8T185 6T122 48Q60 109 60 209V500H135V211Q135 142 174 101T275 60Q338 60 382 102Q426 145 426 212V500H501V0H426ZM339 570L280 624L221 570H139L237
675H324L421 570H339Z" />
<glyph unicode="&#xfc;" glyph-name="udieresis" horiz-adv-x="566" d="M426 0V78Q399 42 360 17T271 -8T185 6T122 48Q60 109 60 209V500H135V211Q135 142 174 101T275 60Q338 60 382 102Q426 145 426 212V500H501V0H426ZM246 662V579H157V662H246ZM403 662V579H314V662H403Z"
/>
<glyph unicode="&#xfd;" glyph-name="yacute" horiz-adv-x="497" d="M198 -198H117L208 7L4 500H87L248 90L412 500H494L198 -198ZM250 675H357L250 570H189L250 675Z" />
<glyph unicode="&#xfe;" glyph-name="thorn" horiz-adv-x="594" d="M140 419Q201 508 319 508Q427 508 494 433Q561 359 561 250Q561 141 494 67Q427 -8 314 -8T140 80V-198H65V700H140V419ZM309 60Q389 60 439 116Q486 169 486 250Q486 331 439 384Q389 440 309
440Q228 440 181 384Q136 331 136 250Q136 169 181 116Q228 60 309 60Z" />
<glyph unicode="&#xff;" glyph-name="ydieresis" horiz-adv-x="497" d="M198 -198H117L208 7L4 500H87L248 90L412 500H494L198 -198ZM215 662V579H126V662H215ZM372 662V579H283V662H372Z" />
<glyph unicode="&#x2013;" glyph-name="endash" horiz-adv-x="610" d="M55 329H555V262H55V329Z" />
<glyph unicode="&#x2014;" glyph-name="emdash" horiz-adv-x="1146" d="M73 329H1073V262H73V329Z" />
<glyph unicode="&#x2018;" glyph-name="quoteleft" horiz-adv-x="218" d="M134 475H36L124 688H192L134 475Z" />
<glyph unicode="&#x2019;" glyph-name="quoteright" horiz-adv-x="211" d="M98 688H196L108 475H40L98 688Z" />
<glyph unicode="&#x201a;" glyph-name="quotesinglbase" horiz-adv-x="220" d="M69 80H167L79 -133H11L69 80Z" />
<glyph unicode="&#x201c;" glyph-name="quotedblleft" horiz-adv-x="368" d="M134 475H36L124 688H192L134 475ZM284 475H186L274 688H342L284 475Z" />
<glyph unicode="&#x201d;" glyph-name="quotedblright" horiz-adv-x="361" d="M248 688H346L258 475H190L248 688ZM98 688H196L108 475H40L98 688Z" />
<glyph unicode="&#x201e;" glyph-name="quotedblbase" horiz-adv-x="370" d="M219 80H317L229 -133H161L219 80ZM69 80H167L79 -133H11L69 80Z" />
<glyph unicode="&#x2022;" glyph-name="bullet" horiz-adv-x="340" d="M36 320Q36 376 75 415T170 454Q226 454 265 415T304 320Q304 264 265 225T170 186Q114 186 75 225T36 320Z" />
<glyph unicode="&#x2039;" glyph-name="guilsinglleft" horiz-adv-x="303" d="M121 259L258 57H169L39 259L169 461H258L121 259Z" />
<glyph unicode="&#x203a;" glyph-name="guilsinglright" horiz-adv-x="303" d="M45 461H134L264 259L134 57H45L182 259L45 461Z" />
</font>
</defs>
</svg>
